[リストへ戻る]
一括表示

タイトル
記事No
投稿日
投稿者
参照先
書き込みエラーについて
218
: 2013/05/25(Sat) 15:45:28
mpn

はじめまして。

CD書き込みの際、新しいCDを入れ開始ボタンを押すと、以下のエラーが出て先へ進めません。
どうしたらよいでしょうか。

書き込みエラー!
Send CUE sheet:
Invalid field in parameter list

タイトル
記事No
投稿日
投稿者
参照先
Re: 書き込みエラーについて
221
: 2013/05/26(Sun) 01:19:59
kazutomo

書き込みありがとうございます。

エラー内容からしてCUESheetに何か不具合箇所が
あるのかもしれません。

問題なければ開いている「.cue」をメモ帳などで開いて
中身を教えてください。
(もしかしたらそれで原因がわかるかも)

自力で何とかするのであれば怪しい行を削除していって
エラーがでなくなる行を探してください。
その行が間違っている、または仕様から外れている可能性が
あります。

よろしくお願いいたします。

タイトル
記事No
投稿日
投稿者
参照先
Re^2: 書き込みエラーについて
223
: 2013/05/27(Mon) 00:36:32
mpn

ご返答ありがとうございます。

自力で何とかできそうにないので、宜しくお願い致します。

REM DISCID
REM COMMENT "ExactAudioCopy v1.0b3"
PERFORMER "不明なアーティスト"
TITLE "不明なタイトル"
FILE "不明なアーティスト - 不明なタイトル.wav" WAVE
TRACK 01 AUDIO
TITLE "トラック01"
PERFORMER "不明なアーティスト"
ISRC JPP400700641
INDEX 01 00:00:00
TRACK 02 AUDIO
TITLE "トラック02"
PERFORMER "不明なアーティスト"
ISRC JPP400601281
INDEX 00 04:18:06
INDEX 01 04:20:17
TRACK 03 AUDIO
TITLE "トラック03"
PERFORMER "不明なアーティスト"
ISRC JPP400800141
INDEX 00 09:20:00
INDEX 01 09:21:49
TRACK 04 AUDIO
TITLE "トラック04"
PERFORMER "不明なアーティスト"
ISRC JPSR07715530
INDEX 00 13:59:06
INDEX 01 14:00:17
TRACK 05 AUDIO
TITLE "トラック05"
PERFORMER "不明なアーティスト"
ISRC JPSR07813350
INDEX 00 17:01:56
INDEX 01 17:02:67
TRACK 06 AUDIO
TITLE "トラック06"
PERFORMER "不明なアーティスト"
ISRC JPSR07928730
INDEX 00 20:24:60
INDEX 01 20:26:70
TRACK 07 AUDIO
TITLE "トラック07"
PERFORMER "不明なアーティスト"
ISRC JPSR08100370
INDEX 00 24:18:49
INDEX 01 24:19:60
TRACK 08 AUDIO
TITLE "トラック08"
PERFORMER "不明なアーティスト"
ISRC JPSR08200630
INDEX 00 28:47:62
INDEX 01 28:48:35
TRACK 09 AUDIO
TITLE "トラック09"
PERFORMER "不明なアーティスト"
ISRC JPSR08225610
INDEX 00 32:24:72
INDEX 01 32:26:07
TRACK 10 AUDIO
TITLE "トラック10"
PERFORMER "不明なアーティスト"
ISRC JPSR08004700
INDEX 00 36:02:69
INDEX 01 36:03:42
TRACK 11 AUDIO
TITLE "トラック11"
PERFORMER "不明なアーティスト"
ISRC JPSR07825430
INDEX 00 39:50:34
INDEX 01 39:52:07
TRACK 12 AUDIO
TITLE "トラック12"
PERFORMER "不明なアーティスト"
ISRC JPSR07908260
INDEX 00 43:03:27
INDEX 01 43:04:37
TRACK 13 AUDIO
TITLE "トラック13"
PERFORMER "不明なアーティスト"
ISRC JPSR07916150
INDEX 00 46:25:41
INDEX 01 46:26:51
TRACK 14 AUDIO
TITLE "トラック14"
PERFORMER "不明なアーティスト"
ISRC JPSR09186759
INDEX 00 49:44:51
INDEX 01 49:45:61
TRACK 15 AUDIO
TITLE "トラック15"
PERFORMER "不明なアーティスト"
ISRC JPSR08427250
INDEX 00 54:22:24
INDEX 01 54:23:34
TRACK 16 AUDIO
TITLE "トラック16"
PERFORMER "不明なアーティスト"
ISRC JPSR08800730
INDEX 01 58:33:61
TRACK 17 AUDIO
TITLE "トラック17"
PERFORMER "不明なアーティスト"
ISRC JPSR08011700
INDEX 00 62:53:71
INDEX 01 62:55:07
TRACK 18 AUDIO
TITLE "トラック18"
PERFORMER "不明なアーティスト"
ISRC JPSR09380001
INDEX 01 66:17:39
TRACK 19 AUDIO
TITLE "トラック19"
PERFORMER "不明なアーティスト"
ISRC JPSR07803540
INDEX 01 71:15:59
TRACK 20 AUDIO
TITLE "トラック20"
PERFORMER "不明なアーティスト"
ISRC JPSR09807966
INDEX 00 74:30:45
INDEX 01 74:32:18

タイトル
記事No
投稿日
投稿者
参照先
Re^3: 書き込みエラーについて
225
: 2013/05/29(Wed) 13:41:36
juubee

横から失礼します。

そのCUEシートでやってみたんですが、私のところでは問題なく書き込めました。
EAC v1.03bです。

キューシートがおかしいようなエラーメッセージですが、そもそもこのキューシートって、EACで生成したキューシートですよね。何でしょうねぇ。

正当な解決方法ではありませんが、ImgBurnなど、他のソフトで試してみたらいかがでしょうか。

タイトル
記事No
投稿日
投稿者
参照先
Re^4: 書き込みエラーについて
234
: 2013/05/30(Thu) 00:24:05
kazutomo

すみません、試していただいてありがとうございます。

問題なく書き込めたのですか・・・
となると、キューシートは悪くないのかもしれません。

確かにキューシートがおかしければ、駄目な行数が
表示されるようなエラーが出ていたと思います。

そう考えるとドライブ依存の可能性がありますね。

ちょっと私のほうではすぐに試せそうにないので、
juubeeさんの言われているとおり他のソフトを
使って切り分けするというのもいいと思います。

タイトル
記事No
投稿日
投稿者
参照先
Re^5: 書き込みエラーについて
235
: 2013/05/30(Thu) 19:53:02
mpn

そうですか、やはりキューシートはおかしくないですか。
手を加えたわけではないし、このような表示が出たのは初めてで戸惑ってしまいました。

アドバイス通り、他のやり方で試してみます。

お二方ともありがとうございました。

- WebForum -