Web Forum
[記事リスト] [返信する] [新着記事] [過去ログ] [ワード検索] [留意事項] [管理用]

タイトル Re^4: EasyWaePackについて
投稿日 : 2013/07/06(Sat) 13:36:20
投稿者 IV
参照先
早速試しました。
logファイルを除くと変換できました。
別のwavファイルや画像ファイル(jpeg,ping)場所などの条件を変えて色々と試しましたが同様の結果でした。

logファイルがあると圧縮できない仕様なのでしょうか?

一応logファイルを以下に貼り付けます(先ほどの音楽ファイルとは別ですが、logがなければ圧縮できたものです)。


Exact Audio Copy V1.0 beta 3 from 29. August 2011

EAC 取り込みログファイル 日付 : 23. 6月 2013, 22:46

miwa / Delight

使用ドライブ : PLEXTOR DVDR PX-760A Adapter: 0 ID: 0

読み込みモード : セキュアモード
ドライブが正確なデータ転送能力を持つ : はい
オーディオキャッシュを使用できる : はい
C2エラー情報を検出する : はい

読み込みサンプルオフセット訂正値 : 0
リードイン・リードアウトをオーバーリードする : いいえ
欠落したオフセットサンプルを無音で補完する : はい
曲の先頭と末端の無音領域を削除する : いいえ
CRC計算で無音のサンプルを使用するか : はい
使用インターフェース : XP/Vista/Win 7のWin32標準インターフェイス

使用出力モード : 内蔵WAV出力ルーチン
サンプルフォーマット : 44.100 Hz; 16 Bit; ステレオ


TOC情報を抜き出します

トラック | スタート | 長さ | 始めのセクター | 最終セクター
-----------------------------------------------
1 | 0:00.00 | 5:24.37 | 0 | 24336
2 | 5:24.37 | 4:52.23 | 24337 | 46259
3 | 10:16.60 | 4:13.27 | 46260 | 65261
4 | 14:30.12 | 4:39.74 | 65262 | 86260
5 | 19:10.11 | 5:03.26 | 86261 | 109011
6 | 24:13.37 | 4:57.72 | 109012 | 131358
7 | 29:11.34 | 4:40.16 | 131359 | 152374
8 | 33:51.50 | 2:12.45 | 152375 | 162319
9 | 36:04.20 | 4:57.67 | 162320 | 184661
10 | 41:02.12 | 5:09.35 | 184662 | 207871
11 | 46:11.47 | 4:40.31 | 207872 | 228902


範囲取り込みステータス & エラー

選択された範囲

ファイル名 G:\miwa - Delight.wav

ピークレベル 98.8 %
取り込みスピード 3.5 X
範囲取り込み品質 100.0 %
コピーCRC 901D91FF
コピー OK

エラーは発生しませんでした

ステータス報告完了


- 関連一覧ツリー (▼ をクリックするとツリーを一括表示します)


- 返信フォーム (この記事に返信する場合は下記フォームから投稿して下さい)
おなまえ
Eメール
タイトル
メッセージ
参照先
暗証キー (英数字で8文字以内)
投稿キー (右画像の数字を入力) 投稿キー

  プレビュー

- 以下のフォームから自分の投稿記事を修正・削除することができます -
処理 記事No 暗証キー

- WebForum -